회원로그인

    기능 개선중
    기능 개선중
Movies

[한글] 혹성탈출: 종의 War for the Planet of the Apes (2017) (1080p Bluray x26…

Page

Name : 松本 Hit : 187 Comment : 0
Date18-01-07 15:14

File

Contents

  • File List ( [한글] 혹성탈출: 종의 War for the Planet of the Apes 2017 1080p Bluray x265 HEVC 10bit AAC 7.1 q22 Joy [UTR].torrent )
  • War for the Planet of the Apes 2017 (1080p x265 q22 S90 Joy)/Extras/All About Ceaser.mkv (63.12M)
  • War for the Planet of the Apes 2017 (1080p x265 q22 S90 Joy)/Extras/Deleted Scenes.mkv (114.52M)
  • War for the Planet of the Apes 2017 (1080p x265 q22 S90 Joy)/Extras/Matt Reeves' Birthday.mkv (32.5M)
  • War for the Planet of the Apes 2017 (1080p x265 q22 S90 Joy)/Extras/The Apes Saga - An Homage.mkv (39.03M)
  • War for the Planet of the Apes 2017 (1080p x265 q22 S90 Joy)/Extras/Title Screen.mkv (11.61M)
  • War for the Planet of the Apes 2017 (1080p x265 q22 S90 Joy)/Extras/WETA -Pushing Boundaries.mkv (53.25M)
  • War for the Planet of the Apes 2017 (1080p x265 q22 S90 Joy)/Encoded by JoyBell (UTR).txt (2.57K)
  • War for the Planet of the Apes 2017 (1080p x265 q22 S90 Joy)/folder.jpg (259.22K)
  • War for the Planet of the Apes 2017 (1080p x265 q22 S90 Joy)/How to play HEVC (THIS FILE).txt (3.01K)
  • War for the Planet of the Apes 2017 (1080p x265 q22 S90 Joy)/Ninite K-Lite Codecs Unattended Silent Installer and Updater.website (561B)
  • War for the Planet of the Apes 2017 (1080p x265 q22 S90 Joy)/War for the Planet of the Apes 2017 (1080p x265 q22 S90 Joy).mkv (2.77G)

ttQP5Qr.jpg

 

dkq1Je9.png

 

GZjFZ5k.jpg

 

hlGkJL0.jpg

 

Xwoq3ET.jpg

 

NL2McPQ.jpg

 


Media Information Code: General Format : Matroska Format version : Version 4 / Version 2 File size : 2.77 GiB Duration : 2 h 20 min Overall bit rate : 2 832 kb/s Movie name : War for the Planet of the Apes 2017 (1080p x265 q22 S90 Joy)[UTR] Encoded date : UTC 2017-11-13 02:58:00 Writing application : mkvmerge v17.0.0 (Be Ur Friend) 64-bit Writing library : libebml v1.3.5 + libmatroska v1.4.8 Cover : Yes Attachments : cover.jpg Writing frontend : StaxRip v1.7.0.4 Video ID : 1 Format : HEVC Format/Info : High Efficiency Video Coding Format profile : [email protected] Codec ID : V_MPEGH/ISO/HEVC Duration : 2 h 20 min Bit rate : 2 166 kb/s Width : 1 920 pixels Height : 800 pixels Display aspect ratio : 2.40:1 Frame rate mode : Constant Frame rate : 23.976 (24000/1001) FPS Color space : YUV Chroma subsampling : 4:2:0 Bit depth : 10 bits Bits/(Pixel*Frame) : 0.059 Stream size : 2.12 GiB (76%) Writing library : x265 2.5+27-0e168bdeb48b:[Windows][MSVC 1911][64 bit] 10bit Audio #1 ID : 2 Format : AAC Format/Info : Advanced Audio Codec Format profile : LC Codec ID : A_AAC Duration : 2 h 20 min Bit rate : 384 kb/s Channel(s) : 8 channels Channel positions : Front: L C R, Side: 4, LFE Sampling rate : 48.0 kHz Frame rate : 46.875 FPS (1024 spf) Compression mode : Lossy Delay relative to video : 20 ms Stream size : 379 MiB (13%) Language : English Default : Yes Forced : No  전 세계에 퍼진 치명적인 바이러스 ‘시미안 플루’로 인해 유인원들은 나날이 진화하는 반면, 살아남은 인간들은 점차 지능을 잃고 퇴화해 간다. 인간과 공존할 수 있다고 믿었던 진화한 유인원의 리더 시저(앤디 서키스)는 유인원들을 몰살하려는 인간군 대령(우디 해럴슨)에 의해 가족과 동료들을 무참히 잃고 분노한다. 진화한 유인원이 언젠가 인간을 지배하게 될 지도 모른다는 두려움과 인류의 생존을 위해서 인간성마저도 버려야 한다는 대령과 더 이상의 자비와 공존은 없다며 가족과, 자유와, 터전을 위해 전쟁에 나서게 된 시저. 종의 운명과 지구의 미래를 결정할 피할 수 없는 전쟁. 과연, 최후는 어떻게 될 것인가!

[한글] 혹성탈출: 종의 War for the Planet of the Apes (2017) (1080p Bluray x265 HEVC 10bit AAC 7.1 q22 Joy) [UTR]
Like 0 Bad 0

댓글목록

등록된 댓글이 없습니다.

Total 19,839 ( 1 / 992 Page )
No Title View Size Date
19839 [한글] 발레리안 : 천 개 행성의 도시 Valerian.and.the.City.of.a.Thousand.P… 새글첨부파일 3 10.95G 13:52
19838 [한글] 프리퀀시 Frequency 2000 (1080p Bluray x265 HEVC 10bit AAC 5… 첨부파일 5 1.87G 02:04
19837 [한글] 패션 오브 크라이스트 The Passion of the Christ (2004) 1080p BluR… 첨부파일 11 2.23G 02:04
19836 [한글] 아이다호 My.Own.Private.Idaho.1991.1080p.Criterion.Bluray.D… 첨부파일 18 9.45G 02:03
19835 [한글] 데블스 오운 The.Devils.Own.1997.1080p.BluRay.H264.AAC-RARBG 첨부파일 7 2.12G 02:02
19834 [한글] 맨 온 파이어 Man.on.Fire.2004.720p+1080p.BluRay.H264.AAC-RAR… 첨부파일 6 1.77G 02:02
19833 [한글] 두 개의 사랑 L.amant.Double.2017.1080p.BRRip.x264.AC3.HORiZO… 첨부파일 9 1.98G 01:05
19832 [한글] 너의 췌장을 먹고 싶어 君の膵臓をたべたい Let.Me.Eat.Your.Pancreas.2017.72… 첨부파일 18 4.86G 01:03
19831 [한글] 특수부대 전랑2 Wolf.Warriors.2.2017.1080p.BluRay.x264.DTS-HD.… 3 - 01:02
19830 [한글] 광야의 40일 Last.Days.In.The.Desert.2015.720p+1080p.BluRay.… 첨부파일 3 1.52G 01:00
19829 [한글] 지오스톰 Geostorm 2017 1080p BRRip x264 AAC 5.1 - Hon3y 첨부파일 4 2.15G 01:00
19828 [한글] 스페셜 포스:블러드 마운틴 [무삭제판] Dag II 2016 1080p WEB-DL DD 5 1 H… 첨부파일 3 4.6G 00:59
19827 [한글] 지오스톰 Geostorm.2017.720p/1080p.BluRay.H264.AAC-RARBG 첨부파일 8 1.33G 00:59
19826 [한글] 직쏘 Jigsaw 2017 1080p BRRip x264 AAC 5.1 - Hon3y 첨부파일 4 1.81G 00:58
19825 [한글] 지오스톰 Geostorm.2017.720p/1080p.BluRay.x264-GECK 첨부파일 6 5.47G 00:58
19824 [한글] 직쏘 Jigsaw.2017.720p/1080p.BluRay.x264-GECK 첨부파일 3 4.38G 00:57
19823 [한글] 직쏘 Jigsaw.2017.720p/1080p.BluRay.H264.AAC-RARBG 첨부파일 2 1.12G 00:57
19822 [한글] 더 자이언트 매케니컬 맨 The.Giant.Mechanical.Man.2012.1080p.BluRa… 첨부파일 5 6.58G 00:55
19821 [한글] 심해의 영혼들 Ghosts.of.the.Abyss.2003.720+1080p.BluRay.H264.… 첨부파일 4 1.1G 00:55
19820 [한글] 쉘 위 댄스 Shall.We.Dance.2004.1080p.BrRip.x264.BOKUTOX.YIF… 첨부파일 7 1.4G 00:53
Search